<?xml version="1.0" standalone="no"?>
<!DOCTYPE svg PUBLIC "-//W3C//DTD SVG 1.1//EN" "http://www.w3.org/Graphics/SVG/1.1/DTD/svg11.dtd" >
<svg xmlns="http://www.w3.org/2000/svg">
<metadata></metadata>
<defs>
<font id="apercumono" horiz-adv-x="1269" >
<font-face units-per-em="2048" ascent="1638" descent="-410" />
<missing-glyph horiz-adv-x="500" />
<glyph horiz-adv-x="2048" />
<glyph horiz-adv-x="2048" />
<glyph unicode="&#xd;" horiz-adv-x="681" />
<glyph unicode=" " />
<glyph unicode="!" d="M492 133q0 61 40.5 103.5t102 42.5t102.5 -42t41 -104q0 -59 -41 -99t-102.5 -40t-102 40t-40.5 99zM518 1434h234l-50 -1024h-135z" />
<glyph unicode="&#x22;" d="M322 1450h233l-51 -504h-131zM713 1450h233l-51 -504h-131z" />
<glyph unicode="#" d="M102 426v152h226l45 278h-209v152h233l68 426h160l-68 -426h268l70 426h160l-70 -426h201v-152h-225l-46 -278h209v-152h-233l-68 -426h-159l67 426h-268l-70 -426h-160l70 426h-201zM487 578h269l45 278h-269z" />
<glyph unicode="$" d="M129 410l168 65q84 -319 367 -319q135 0 214.5 66.5t79.5 193.5q0 45 -15 77.5t-35.5 53t-68.5 40t-88 32t-118 30.5q-76 18 -123 33.5t-108.5 47.5t-96.5 71t-60.5 103.5t-25.5 146.5q0 158 95.5 266t267.5 129v192h163v-196q137 -23 227.5 -104.5t133.5 -194.5 l-158 -80q-94 217 -291 217q-119 0 -188.5 -59.5t-69.5 -164t79 -151.5t253 -92q78 -20 128 -36.5t108.5 -47.5t92.5 -66.5t56.5 -93t22.5 -129.5q0 -205 -105.5 -318.5t-288.5 -133.5v-193h-163v193q-178 20 -297 128.5t-156 293.5z" />
<glyph unicode="%" d="M27 1122.5q0 137.5 94 232.5t233.5 95t233.5 -95t94 -232.5t-94 -232.5t-233.5 -95t-233.5 94q-94 96 -94 233.5zM82 408l1038 722l70 -98l-1038 -723zM176 1122q0 -80 48 -132t130 -52t130 52t48 132t-48 132.5t-130 52t-131 -53.5q-47 -51 -47 -131zM588 311.5 q0 137.5 94 232.5t233.5 95t233.5 -95t94 -232.5t-94 -232.5t-233.5 -95t-233.5 94q-94 96 -94 233.5zM737 311q0 -80 48.5 -132t130 -52t130 52t48.5 132t-48.5 132.5t-130.5 52t-131 -53.5q-47 -51 -47 -131z" />
<glyph unicode="&#x26;" d="M109 410q0 150 80.5 263t197.5 173q-125 170 -125 299q0 133 91 219t227 86q143 0 231 -86t88 -201q0 -84 -51 -174q-57 -98 -227 -186l299 -379q41 84 96 244l114 -125q-47 -141 -106 -252l229 -291h-206l-121 152q-147 -168 -383 -168q-197 0 -315.5 113.5 t-118.5 312.5zM281 406q0 -123 76.5 -195t185.5 -72q172 0 284 137l-352 453q-195 -111 -194 -323zM426 1137q0 -92 100 -224q102 51 156.5 106.5t54.5 133.5q0 63 -44 106.5t-113.5 43.5t-111.5 -47t-42 -119z" />
<glyph unicode="'" d="M518 1450h234l-52 -504h-131z" />
<glyph unicode="(" d="M484 717q0 471 221 819h172q-217 -344 -217.5 -819t217.5 -819h-172q-221 348 -221 819z" />
<glyph unicode=")" d="M401 -102q217 344 217 819t-217 819h172q221 -348 221.5 -819t-221.5 -819h-172z" />
<glyph unicode="*" d="M254 1122l43 133l268 -88v283h140v-283l268 88l43 -133l-266 -88l163 -227l-112 -80l-166 227l-166 -227l-113 80l164 227z" />
<glyph unicode="+" d="M184 578v151h375v375h152v-375h374v-151h-374v-375h-152v375h-375z" />
<glyph unicode="," d="M406 -219l196 444h252l-299 -444h-149z" />
<glyph unicode="-" d="M279 573v152h714v-152h-714z" />
<glyph unicode="." d="M471 155.5q0 69.5 47 116.5t117 47t117 -47t47 -116.5t-47 -116.5t-117 -47t-117 47t-47 116.5z" />
<glyph unicode="/" d="M127 -102l831 1638h177l-832 -1638h-176z" />
<glyph unicode="0" d="M111 717q0 338 138 535.5t386 197.5t386 -197.5t138 -535.5t-139 -537q-137 -197 -385 -196.5t-386 198t-138 535.5zM291 717q0 -238 76 -389l426 911q-70 47 -158 47q-164 0 -254 -152.5t-90 -416.5zM477 195q70 -48 158 -48q164 0 254 153t90 417q0 242 -76 389z" />
<glyph unicode="1" d="M240 0v156h368v1020l-358 -213v188l465 283h65v-1278h369v-156h-909z" />
<glyph unicode="2" d="M244 0v80l565 700q68 84 92.5 143.5t24.5 129.5q0 100 -54 164q-59 70 -172 69q-100 0 -167.5 -71.5t-83.5 -188.5l-175 33q16 168 139.5 279.5t286.5 111.5q201 0 312 -125q90 -102 90 -272q0 -166 -115 -312l-463 -577h604v-164h-884z" />
<glyph unicode="3" d="M164 393l172 23q39 -268 285 -269q129 0 207.5 80t78.5 224q0 145 -77.5 224t-208.5 79q-72 0 -127 -27l-72 96l326 447h-517v164h779v-56l-365 -493q18 6 57 6q166 0 273.5 -122t107.5 -318q0 -207 -129 -337t-333 -130q-180 0 -309.5 112.5t-147.5 296.5z" />
<glyph unicode="4" d="M127 305v72l606 1057h193v-965h217v-164h-217v-305h-176v305h-623zM360 469h390v694z" />
<glyph unicode="5" d="M195 375l174 33q18 -127 92 -194t184 -67q131 0 211 88.5t80 231.5q0 145 -72.5 232t-201.5 87q-96 0 -182.5 -45t-139.5 -114l-113 24l82 783h701v-164h-551l-53 -416q43 41 119.5 68.5t148.5 27.5q205 0 321.5 -130t116.5 -353q0 -213 -130 -348t-337 -135 q-182 0 -307 101.5t-143 289.5z" />
<glyph unicode="6" d="M213 451q0 143 74 268l424 731h196l-311 -547q31 15 78 15q197 0 320.5 -130.5t123.5 -336.5q0 -199 -128 -333t-324.5 -134t-324.5 134t-128 333zM393 451q0 -131 77 -217.5t195.5 -86.5t195.5 86t77 218q0 137 -76 220t-196.5 83t-196.5 -83t-76 -220z" />
<glyph unicode="7" d="M219 1270v164h920v-76l-639 -1358h-191l604 1270h-694z" />
<glyph unicode="8" d="M190 412q0 129 57.5 222t155.5 138q-72 39 -117.5 122t-45.5 173q0 162 111.5 272.5t283.5 110.5t283.5 -110.5t111.5 -272.5q0 -90 -46 -173t-118 -122q98 -45 155.5 -138t57.5 -222q0 -197 -129 -312.5t-315 -115.5t-315.5 115.5t-129.5 312.5zM371 411.5 q0 -120.5 73.5 -192.5t190.5 -72t190.5 72t73.5 192.5t-74 192.5t-190.5 72t-190 -72t-73.5 -192.5zM416 1067q0 -100 59.5 -163.5t159.5 -63.5t159.5 63.5t59.5 164t-59 163.5t-159.5 63t-160 -63.5t-59.5 -163.5z" />
<glyph unicode="9" d="M168 983q0 199 128 333t324.5 134t324.5 -134t128 -333q0 -143 -74 -268l-424 -731h-196l311 546q-31 -14 -78 -14q-197 0 -320.5 130t-123.5 337zM348 983q0 -137 76 -220t196.5 -83t196.5 83t76 220q0 131 -77 217t-195.5 86t-195.5 -86t-77 -217z" />
<glyph unicode=":" d="M471 155.5q0 69.5 47 116.5t117 47t117 -47t47 -116.5t-47 -116.5t-117 -47t-117 47t-47 116.5zM471 856q0 70 47 117t117 47t117 -47t47 -117t-47 -117t-117 -47t-117 47t-47 117z" />
<glyph unicode=";" d="M330 -219l196 444h252l-299 -444h-149zM471 856q0 70 47 117t117 47t117 -47t47 -117t-47 -117t-117 -47t-117 47t-47 117z" />
<glyph unicode="&#x3c;" d="M201 545v180l837 401v-178l-665 -313l665 -313v-179z" />
<glyph unicode="=" d="M227 389v152h817v-152h-817zM227 729v152h817v-152h-817z" />
<glyph unicode="&#x3e;" d="M231 143v179l666 313l-666 313v178l838 -401v-180z" />
<glyph unicode="?" d="M270 1143q25 139 123.5 223t251.5 84q158 0 254 -90q94 -88 94 -215q0 -166 -157 -244l-207 -100q-100 -55 -101 -142q0 -49 29 -76.5t78 -27.5q96 0 147 121l133 -47q-74 -215 -274 -215q-123 0 -196.5 68.5t-73.5 185.5q0 168 174 258q45 25 101 46t87 38q88 47 88 145 q0 70 -43 107q-49 43 -133 43q-78 0 -134 -51.5t-81 -137.5zM506 129q0 59 39 99t96 40q59 0 99 -40t40 -99q0 -57 -40 -96t-99 -39q-57 0 -96 39t-39 96z" />
<glyph unicode="@" d="M86 578v79q0 393 156.5 603t443.5 210q231 0 365.5 -119.5t134.5 -344.5v-787h-160l-16 90q-80 -106 -222 -106q-166 0 -267 119.5t-101 300.5q0 184 100.5 300.5t267.5 116.5q156 0 240 -90v43q0 154 -93 242t-249 88q-195 0 -311.5 -172t-116.5 -500v-69 q0 -299 117 -464t342 -165q219 0 366 147l80 -125q-172 -168 -446 -168q-301 0 -466 201t-165 570zM588 623q0 -119 58.5 -194t158.5 -75t158.5 75t58.5 194q0 121 -57.5 193.5t-160 72.5t-159.5 -72.5t-57 -193.5z" />
<glyph unicode="A" d="M39 0l510 1434h172l510 -1434h-187l-129 383h-561l-129 -383h-186zM414 555h442l-221 645z" />
<glyph unicode="B" d="M197 0v1434h503q193 0 300.5 -96.5t107.5 -272.5q0 -92 -46 -167t-118 -114q106 -43 171 -136t65 -222q0 -199 -119 -312.5t-328 -113.5h-536zM377 172h330q286 0 286 252q0 254 -286 254h-330v-506zM377 850h319q104 0 165 52t61 153q0 102 -62 154.5t-164 52.5h-319 v-412z" />
<glyph unicode="C" d="M100 716.5q0 356.5 167 545t425 188.5q201 0 333 -119t181 -317l-170 -51q-49 160 -130 237.5t-214 77.5q-190 0 -297.5 -138.5t-107.5 -423t107.5 -422.5t297.5 -138q133 0 214 77.5t130 237.5l170 -51q-49 -199 -181 -317.5t-333 -118.5q-258 0 -425 188t-167 544.5z " />
<glyph unicode="D" d="M160 0v1434h362q291 0 464 -182.5t173 -534.5t-173 -534.5t-464 -182.5h-362zM340 172h164q225 0 344 128t119 417t-119 417t-344 128h-164v-1090z" />
<glyph unicode="E" d="M186 0v1434h910v-172h-729v-412h626v-172h-626v-506h749v-172h-930z" />
<glyph unicode="F" d="M186 0v1434h895v-172h-714v-428h614v-172h-614v-662h-181z" />
<glyph unicode="G" d="M90 717q0 356 167 544.5t425 188.5q203 0 334 -118t180 -318l-170 -51q-49 160 -130 237.5t-214 77.5q-190 0 -298 -138.5t-108 -423t108 -422.5t298 -138q293 0 322 395h-322v172h508v-723h-150l-10 193q-47 -102 -144.5 -155.5t-215.5 -53.5q-248 0 -414 189t-166 544z " />
<glyph unicode="H" d="M139 0v1434h180v-586h631v586h180v-1434h-180v676h-631v-676h-180z" />
<glyph unicode="I" d="M199 0v156h346v1122h-346v156h872v-156h-346v-1122h346v-156h-872z" />
<glyph unicode="J" d="M150 373l182 39q25 -121 92.5 -188.5t171.5 -67.5q121 0 190.5 73.5t69.5 225.5v979h180v-975q0 -231 -122.5 -353t-317.5 -122q-186 0 -303 110.5t-143 278.5z" />
<glyph unicode="K" d="M201 0v1434h180v-576l549 576h235l-618 -646l663 -788h-229l-600 719v-719h-180z" />
<glyph unicode="L" d="M272 0v1434h181v-1262h731v-172h-912z" />
<glyph unicode="M" d="M137 0v1434h193l305 -795l305 795h193v-1434h-181v1051l-250 -639h-135l-250 639v-1051h-180z" />
<glyph unicode="N" d="M145 0v1434h197l600 -1106v1106h180v-1434h-196l-600 1106v-1106h-181z" />
<glyph unicode="O" d="M77 719q0 353 156 541q156 190 402 190t401.5 -189.5t155.5 -544t-155.5 -543.5t-401.5 -189q-245 0 -401 189t-157 546zM264 717q0 -289 100.5 -425t270.5 -136q171 0 271 136q100 135 100 422q0 291 -101 427q-100 137 -270 137t-270.5 -136t-100.5 -425z" />
<glyph unicode="P" d="M203 0v1434h542q205 0 315.5 -110t110.5 -300t-110.5 -300t-315.5 -110h-362v-614h-180zM383 786h358q244 0 244 238t-244 238h-358v-476z" />
<glyph unicode="Q" d="M78 716.5q0 354.5 155.5 544t401.5 189.5t401.5 -189.5t155.5 -543.5q0 -287 -107 -471l134 -133l-125 -129l-123 122q-138 -122 -333 -122h-3q-246 0 -401.5 189t-155.5 543.5zM264 717q0 -289 100.5 -425t270.5 -136q127 0 213 73l-148 152l125 129l127 -129 q53 137 54 336q0 289 -100.5 425t-270.5 136t-270.5 -136t-100.5 -425z" />
<glyph unicode="R" d="M164 0v1434h502q197 0 309 -96.5t112 -282.5q0 -305 -299 -367l429 -688h-213l-420 676h-240v-676h-180zM344 848h326q231 0 231 207t-231 207h-326v-414z" />
<glyph unicode="S" d="M121 410l168 65q84 -319 366 -319q135 0 215 66.5t80 193.5q0 45 -15 77.5t-35.5 53t-69 40t-88.5 32t-117 30.5q-76 18 -123 33.5t-108.5 47.5t-96.5 71t-60.5 103.5t-25.5 146.5q0 176 116.5 287.5t321.5 111.5q174 0 287 -88t162 -219l-158 -80q-94 215 -291 215 q-119 0 -188.5 -58.5t-69.5 -163t79 -151.5t253 -92q78 -20 128 -36.5t108.5 -47.5t92 -66.5t56 -93t22.5 -129.5q0 -227 -129 -341.5t-346 -114.5q-207 0 -350 109.5t-184 316.5z" />
<glyph unicode="T" d="M98 1262v172h1073v-172h-446v-1262h-180v1262h-447z" />
<glyph unicode="U" d="M127 498v936h180v-949q0 -147 86 -238t242 -91t242 91t86 238v949h180v-936q0 -240 -143.5 -377t-364.5 -137t-364.5 137t-143.5 377z" />
<glyph unicode="V" d="M47 1434h186l402 -1178l401 1178h187l-502 -1434h-172z" />
<glyph unicode="W" d="M63 1434h187l86 -1168l217 875h164l217 -875l86 1168h186l-137 -1434h-223l-211 842l-211 -842h-223z" />
<glyph unicode="X" d="M80 0l452 770l-389 664h207l285 -488l285 488h206l-389 -664l453 -770h-207l-348 594l-348 -594h-207z" />
<glyph unicode="Y" d="M84 1434h199l352 -689l352 689h199l-461 -869v-565h-180v565z" />
<glyph unicode="Z" d="M150 0v86l702 1176h-674v172h934v-86l-702 -1176h725v-172h-985z" />
<glyph unicode="[" d="M420 -102v1638h549v-156h-385v-1327h385v-155h-549z" />
<glyph unicode="\" d="M137 1536h176l832 -1638h-176z" />
<glyph unicode="]" d="M301 53h385v1327h-385v156h549v-1638h-549v155z" />
<glyph unicode="^" d="M184 862l383 572h135l383 -572h-176l-274 416l-275 -416h-176z" />
<glyph unicode="_" d="M143 0h983v-164h-983v164z" />
<glyph unicode="`" d="M440 1442h248l137 -295h-135z" />
<glyph unicode="a" d="M227 297q0 168 124 253t343 85h209v45q0 113 -66.5 163t-170.5 50q-88 0 -154 -49t-90 -127l-152 41q35 133 143.5 212t252.5 79q190 0 299.5 -96.5t109.5 -301.5v-651h-139l-25 145q-49 -72 -149 -116.5t-215 -44.5q-137 0 -228.5 80.5t-91.5 232.5zM403 297 q0 -74 46.5 -116t123.5 -42q123 0 226.5 79t103.5 237v32h-225q-131 0 -203 -51t-72 -139z" />
<glyph unicode="b" d="M205 0v1450h172v-549q47 63 130 105.5t185 42.5q223 0 348 -145.5t125 -387.5t-125 -387t-348 -145q-100 0 -184 44t-131 109v-137h-172zM362 516q0 -168 84 -272t228 -105l2 1q146 0 229 104q84 104 84 272t-84 272.5t-229.5 104.5t-229.5 -104.5t-84 -272.5z" />
<glyph unicode="c" d="M182 516q0 221 133.5 377t360.5 156q311 0 436 -285l-149 -62q-82 190 -287 191q-150 0 -234 -105.5t-84 -271.5t84 -271.5t234 -105.5q205 1 287 191l149 -62q-125 -284 -434 -284h-2q-227 0 -360.5 155.5t-133.5 376.5z" />
<glyph unicode="d" d="M143 516q0 242 125 387.5t348 145.5q102 0 185.5 -42t130.5 -106v549h172v-1450h-172v137q-47 -66 -131 -109.5t-185 -43.5q-223 0 -348 145t-125 387zM319 516q0 -168 84 -272.5t229.5 -104.5t229.5 104.5t84 272.5t-84 272t-228 105l-2 -1q-146 0 -229 -104 q-84 -104 -84 -272z" />
<glyph unicode="e" d="M156 516q0 225 134 379t359 154q231 0 360.5 -142.5t129.5 -355.5v-72h-807q8 -154 94 -247t223 -93q221 0 332 205l137 -72q-149 -288 -467 -288h-2q-221 0 -357 151.5t-136 380.5zM344 635h612q-23 123 -102.5 190.5t-204.5 67.5q-121 0 -199.5 -68.5t-105.5 -189.5z " />
<glyph unicode="f" d="M195 877v155h290v64q0 354 318 354q117 0 215 -59l-43 -152q-86 55 -166 55q-152 0 -152 -194v-68h402v-155h-402v-877h-172v877h-290z" />
<glyph unicode="g" d="M170 -94q0 139 106 221q-73 56 -73 155q0 73 40 128t111 82q-63 85 -63 210q0 158 103.5 252.5t260.5 94.5q111 0 203 -54l215 111l78 -141l-174 -91q43 -74 43 -172q0 -158 -102.5 -252t-262.5 -94q-106 0 -190 43q-94 -37 -94 -106q0 -86 145 -86h268q166 0 256 -73 t90 -212q0 -180 -141 -268t-342 -88q-225 0 -351 87t-126 253zM342 -88q0 -90 83 -142.5t222 -52.5q145 0 226 50.5t81 138.5q0 153 -174 153h-243q-63 0 -107 9q-88 -45 -88 -156zM459 702.5q0 -92.5 56 -145.5t140 -53t140.5 52t56.5 146.5t-56.5 146.5t-140.5 52 t-141 -53q-55 -53 -55 -145.5z" />
<glyph unicode="h" d="M221 0v1450h172v-608q61 90 160.5 148.5t214.5 58.5q315 0 315 -336v-713h-172v676q0 217 -190 217q-131 0 -229.5 -125t-98.5 -336v-432h-172z" />
<glyph unicode="i" d="M223 0v152h357v729h-316v151h488v-880h381v-152h-910zM512 1307q0 59 41 101t100.5 42t100.5 -42t41 -101.5t-41 -99.5t-100.5 -40t-100.5 41.5t-41 98.5z" />
<glyph unicode="j" d="M307 881v151h578v-975q0 -207 -113.5 -328.5t-277.5 -162.5l-58 164q147 49 212 135t65 237v779h-406zM645 1307q0 59 41 101t100.5 42t100.5 -42t41 -101.5t-41 -99.5t-100.5 -40t-100.5 41.5t-41 98.5z" />
<glyph unicode="k" d="M227 0v1450h172v-850l441 432h225l-481 -473l528 -559h-225l-488 518v-518h-172z" />
<glyph unicode="l" d="M127 1278v156h457v-1045q0 -250 217 -250q201 0 239 250l156 -31q-27 -184 -130 -279t-265 -95q-180 0 -284.5 106.5t-104.5 298.5v889h-285z" />
<glyph unicode="m" d="M98 0v1032h172v-131q92 147 242 148q166 0 213 -168q41 76 107.5 122t146.5 46q102 0 163.5 -69t61.5 -210v-770h-172v733q0 84 -26.5 121t-85.5 37q-80 0 -131.5 -100.5t-51.5 -305.5v-485h-172v733q0 84 -26.5 121t-85.5 37q-80 0 -131.5 -100.5t-51.5 -305.5v-485 h-172z" />
<glyph unicode="n" d="M231 0v1032h172v-190q57 92 150.5 149.5t200.5 57.5q158 0 236.5 -88t78.5 -242v-719h-172v682q0 211 -190 211q-127 0 -215.5 -130t-88.5 -347v-416h-172z" />
<glyph unicode="o" d="M127 516q0 221 139.5 377t368.5 156t368.5 -156t139.5 -377t-139.5 -376.5t-369.5 -155.5q-1 0 -1 -1q-228 0 -367 156t-139 377zM303 515.5q0 -155.5 90 -266t241.5 -110.5t242 110.5t90.5 266.5t-90.5 266.5t-242 110.5t-241.5 -111t-90 -266.5z" />
<glyph unicode="p" d="M213 -418v1450h172v-137q47 66 131 110t184 44q223 0 348.5 -145.5t125.5 -387.5t-125.5 -387t-348.5 -145q-102 0 -185 42t-130 105v-549h-172zM371 516q0 -168 84 -272q84 -105 228 -105l1 1q145 0 229 104t84 272t-84 272.5t-229 104.5t-229 -104.5t-84 -272.5z" />
<glyph unicode="q" d="M117 516q0 242 125 387.5t348 145.5q100 0 184 -44t131 -110v137h172v-1450h-172v549q-47 -63 -130 -105t-185 -42q-223 0 -348 145t-125 387zM293 516q0 -168 84 -272.5t229.5 -104.5t229.5 104.5t84 272.5t-84 272q-84 105 -228 105q-1 0 -2 -1q-145 0 -229 -104 t-84 -272z" />
<glyph unicode="r" d="M252 0v1032h172v-190q133 207 381 207q154 0 243 -89t97 -255h-172q-23 188 -199 188q-145 0 -247.5 -136t-102.5 -384v-373h-172z" />
<glyph unicode="s" d="M211 283l164 61q35 -96 107.5 -150.5t176.5 -54.5q94 0 157 41t63 119q0 61 -62.5 91t-204.5 61q-158 33 -245.5 97t-87.5 202q0 135 102.5 217t249.5 82q254 0 377 -224l-136 -96q-90 164 -247 164q-74 0 -126.5 -34t-52.5 -103q0 -63 58.5 -99t181.5 -61 q66 -14 113 -26.5t99 -35t84 -51t53.5 -71.5t21.5 -97q0 -154 -115 -242.5t-283 -88.5q-160 0 -280.5 77.5t-167.5 221.5z" />
<glyph unicode="t" d="M135 877v155h275v309l172 109v-418h503v-155h-503v-529q0 -209 178 -209q137 0 254 123l63 -145q-133 -133 -317 -133q-170 0 -260 90t-90 268v535h-275z" />
<glyph unicode="u" d="M211 313v719h172v-682q0 -211 190 -211q127 0 215.5 130t88.5 347v416h172v-1032h-172v190q-57 -92 -150.5 -149t-200.5 -57q-158 0 -236.5 87.5t-78.5 241.5z" />
<glyph unicode="v" d="M117 1032h186l332 -827l332 827h186l-432 -1032h-172z" />
<glyph unicode="w" d="M55 1032h176l142 -764l176 662h172l176 -662l141 764h176l-225 -1032h-155l-199 725l-199 -725h-155z" />
<glyph unicode="x" d="M166 0l375 547l-336 485h203l227 -342l227 342h203l-336 -485l375 -547h-195l-274 406l-275 -406h-194z" />
<glyph unicode="y" d="M147 1032h193l346 -756l305 756h187l-613 -1450h-172l201 488z" />
<glyph unicode="z" d="M225 0v74l541 803h-514v155h774v-74l-547 -802h572v-156h-826z" />
<glyph unicode="{" d="M338 639v156q100 0 152.5 41t52.5 143v352q0 92 56 148.5t149 56.5h282v-156h-231q-49 0 -70.5 -21.5t-21.5 -70.5v-370q0 -96 -37 -139.5t-107 -61.5q70 -18 107 -61.5t37 -139.5v-371q0 -49 21.5 -70.5t70.5 -21.5h231v-155h-282q-92 0 -148.5 56t-56.5 148v353 q0 102 -52.5 143t-152.5 41z" />
<glyph unicode="|" d="M553 -102v1638h164v-1638h-164z" />
<glyph unicode="}" d="M240 53h231q49 0 70.5 21.5t21.5 70.5v371q0 96 37 139t107 62q-70 18 -107 61t-37 140v370q0 49 -21.5 70.5t-70.5 21.5h-231v156h282q92 0 148.5 -56.5t56.5 -148.5v-352q0 -102 52 -143t153 -41v-156q-100 0 -152.5 -41t-52.5 -143v-353q0 -92 -56.5 -148t-148.5 -56 h-282v155z" />
<glyph unicode="~" d="M156 653q45 84 115.5 132.5t154.5 48.5q90 0 209 -51.5t188 -51.5q115 0 191 92l100 -104q-45 -84 -115.5 -132t-154.5 -48q-90 0 -209 51t-189 51q-114 0 -190 -92z" />
<glyph unicode="&#xa0;" />
<glyph unicode="&#xa1;" d="M492 883q0 59 40.5 99t102 40t102.5 -40t41 -99q0 -61 -41 -103.5t-102.5 -42.5t-102 42.5t-40.5 103.5zM518 -418l49 1024h135l50 -1024h-234z" />
<glyph unicode="&#xa2;" d="M170 717q0 199 109.5 347t302.5 179v293h163v-293q244 -31 355 -278l-150 -62q-82 190 -286 191q-150 0 -234 -105.5t-84 -271.5t84 -271.5t234 -105.5q204 0 286 190l150 -61q-109 -248 -355 -281v-290h-163v292q-193 29 -302.5 177.5t-109.5 349.5z" />
<glyph unicode="&#xa3;" d="M188 111q121 115 174.5 208t53.5 195q0 63 -23 150h-164v163h109q-45 123 -45 211q0 188 114.5 300t288.5 112q147 0 250 -73.5t152 -209.5l-154 -71q-45 102 -103.5 146t-144.5 44q-98 0 -164.5 -63.5t-66.5 -186.5q0 -98 41 -209h336v-163h-283q14 -66 14 -129 q0 -205 -161 -363q92 55 178 55q61 0 137 -40t115 -40q55 0 96 30t88 110l135 -74q-123 -229 -309 -229q-86 0 -177 41t-138 41q-121 0 -232 -82z" />
<glyph unicode="&#xa4;" d="M121 256l180 137q-72 104 -72 235.5t72 235.5l-180 137l141 142l137 -178q104 78 235.5 77.5t235.5 -77.5l138 178l141 -142l-180 -137q72 -104 71.5 -235t-71.5 -236l180 -137l-141 -141l-138 178q-104 -78 -235 -78t-236 78l-137 -178zM395 628.5q0 -114.5 65.5 -186 t174 -71.5t174 71.5t65.5 186t-65.5 186.5t-173.5 72t-174 -72t-66 -186.5z" />
<glyph unicode="&#xa5;" d="M92 1434h199l344 -689l344 689h199l-375 -721h241v-148h-319v-180h319v-147h-319v-238h-180v238h-320v147h320v180h-320v148h242z" />
<glyph unicode="&#xa6;" d="M553 -102v714h164v-714h-164zM553 821v715h164v-715h-164z" />
<glyph unicode="&#xa7;" d="M209 561q0 172 143 279q-88 94 -88 229q0 176 108.5 278.5t278.5 102.5q166 0 273.5 -86t144.5 -238l-158 -51q-76 211 -260 211q-98 0 -156.5 -55t-58.5 -154q0 -53 21.5 -94t67.5 -72.5t90 -52t122 -54.5t127 -59q123 -63 176.5 -127.5t53.5 -162.5q0 -172 -144 -279 q88 -94 88 -229q0 -176 -108.5 -278.5t-278.5 -102.5q-166 0 -273.5 86t-144.5 237l158 52q76 -211 260 -211q98 0 156.5 55t58.5 154q0 53 -21.5 94t-67.5 72.5t-90 52t-122 54.5t-127 58q-123 63 -176 128t-53 163zM371 580q0 -57 47 -104.5t106.5 -74t151.5 -65.5 t143 -68q113 70 113 168q0 57 -47 104.5t-106.5 74t-151.5 65.5t-144 68q-113 -70 -112 -168z" />
<glyph unicode="&#xa8;" d="M330 1333q0 49 33.5 83t80.5 34q51 0 84 -34t33 -83t-32.5 -81.5t-84.5 -32.5q-47 0 -80.5 32.5t-33.5 81.5zM707 1333q0 49 33.5 83t80.5 34q51 0 84 -34t33 -83t-33 -81.5t-84 -32.5q-47 0 -80.5 32.5t-33.5 81.5z" />
<glyph unicode="&#xa9;" d="M80 717q0 244 157.5 406.5t397 162.5t397.5 -162.5t158 -406.5t-158 -407t-397 -163t-397 162q-158 164 -158 408zM211 716.5q0 -190.5 117.5 -317.5t306 -127t306.5 127t118 317.5t-118 317.5t-306 127t-307 -127q-117 -127 -117 -317.5zM346 716.5q0 151.5 87 231.5 t202 80q96 0 164.5 -50t85.5 -138l-105 -25q-41 104 -145 105q-76 0 -122 -50.5t-46 -153t46 -152.5t122 -50q104 0 145 104l105 -24q-16 -88 -85 -138t-165 -50q-115 0 -202 79.5t-87 231z" />
<glyph unicode="&#xaa;" d="M301 850q0 129 98.5 197.5t268.5 68.5h163v35q0 88 -55 128t-139 40q-66 0 -115 -38t-69 -99l-117 30q27 104 108.5 167t192.5 63q152 0 241 -77t89 -237v-514h-111l-18 119q-39 -57 -118 -92t-169 -35q-109 0 -179.5 61.5t-70.5 182.5zM440 850q0 -57 35 -89t98 -32 q96 0 177 61.5t81 184.5v26h-178q-102 0 -157.5 -40.5t-55.5 -110.5z" />
<glyph unicode="&#xab;" d="M88 571v127l602 408v-184l-428 -287l428 -287v-184zM580 571v127l602 408v-184l-428 -287l428 -287v-184z" />
<glyph unicode="&#xac;" d="M190 641v156h922v-506h-172v350h-750z" />
<glyph unicode="&#xad;" d="M279 573v152h714v-152h-714z" />
<glyph unicode="&#xae;" d="M80 717q0 244 157.5 406.5t397 162.5t397.5 -162.5t158 -406.5t-158 -407t-397 -163t-397 162q-158 164 -158 408zM211 716.5q0 -190.5 117.5 -317.5t306 -127t306.5 127t118 317.5t-118 317.5t-306 127t-307 -127q-117 -127 -117 -317.5zM436 414v606h217 q92 0 142.5 -48t50.5 -126q0 -66 -38 -111t-97 -57l182 -264h-121l-180 258h-49v-258h-107zM543 772h104q88 0 88 74t-88 74h-104v-148z" />
<glyph unicode="&#xaf;" d="M381 1294v156h510v-156h-510z" />
<glyph unicode="&#xb0;" d="M319.5 1132.5q-0.5 135.5 88 224.5t227.5 89t227 -89t88 -224.5t-88 -224.5t-227 -89t-227 88q-88 90 -88.5 225.5zM461 1133q0 -80 47 -129.5t127 -49.5t127 49.5t47 129t-47 129t-127 49.5t-127 -49t-47 -129z" />
<glyph unicode="&#xb1;" d="M184 0v152h901v-152h-901zM184 741v152h375v375h152v-375h374v-152h-374v-374h-152v374h-375z" />
<glyph unicode="&#xb2;" d="M414 1264q14 86 73.5 140t153.5 54q106 0 162.5 -56t56.5 -149q0 -102 -69 -186l-152 -190h238v-123h-461v51l258 317q51 63 51 129q0 37 -21.5 60.5t-62.5 23.5q-81 0 -106 -102z" />
<glyph unicode="&#xb3;" d="M416 956l131 31q6 -53 37.5 -86t79.5 -33q100 0 100 113q0 119 -100 119q-33 0 -68 -27l-59 84l135 170h-219v123h413v-47l-172 -213q98 0 151.5 -56.5t53.5 -152.5q0 -109 -64.5 -172.5t-170.5 -63.5q-102 0 -171 58.5t-77 152.5z" />
<glyph unicode="&#xb4;" d="M444 1147l138 295h247l-249 -295h-136z" />
<glyph unicode="&#xb6;" d="M106 1038q0 164 116 280t280 116h639v-156h-127v-1696h-172v1696h-168v-1696h-172v1061q-164 0 -280 115.5t-116 279.5z" />
<glyph unicode="&#xb7;" d="M471 721q0 70 47 117t117 47t117 -47t47 -117t-47 -117t-117 -47t-117 47t-47 117z" />
<glyph unicode="&#xb8;" d="M453 -389l221 266h143l-170 -358z" />
<glyph unicode="&#xb9;" d="M408 754v114h161v400l-153 -70v145l231 107h49v-582h162v-114h-450z" />
<glyph unicode="&#xba;" d="M235.5 1024q0.5 174 109 296t288.5 122t289.5 -122t109.5 -296t-109.5 -296t-289.5 -122t-289 121q-109 123 -108.5 297zM372.5 1024q0.5 -123 71 -210t189.5 -87t189.5 87t70.5 210t-70.5 209t-189.5 86t-191 -86q-70 -86 -69.5 -209z" />
<glyph unicode="&#xbb;" horiz-adv-x="1265" d="M84 164v184l428 287l-428 287v184l602 -408v-127zM575 164v184l429 287l-429 287v184l603 -408v-127z" />
<glyph unicode="&#xbc;" d="M59 754v114h162v400l-153 -70v145l231 107h49v-582h162v-114h-451zM125 401l1038 723l70 -98l-1038 -723zM641 109v55l285 516h149v-449h103v-122h-103v-125h-127v125h-307zM807 231h141v269z" />
<glyph unicode="&#xbd;" d="M59 754v114h162v400l-153 -70v145l231 107h49v-582h162v-114h-451zM125 401l1038 723l70 -98l-1038 -723zM733 510q14 86 73.5 140.5t154.5 54.5q106 0 162.5 -56.5t56.5 -148.5q0 -102 -70 -187l-152 -190h238v-123h-461v51l258 318q51 63 51 129q0 37 -21.5 60.5 t-61.5 23.5q-82 -1 -107 -103z" />
<glyph unicode="&#xbe;" d="M47 956l131 31q6 -53 38 -86t79 -33q100 0 100 113q0 119 -100 119q-33 0 -68 -27l-59 84l135 170h-219v123h414v-47l-172 -213q98 0 151 -56.5t53 -152.5q0 -109 -64.5 -172.5t-170.5 -63.5q-102 0 -171 58.5t-77 152.5zM125 401l1038 723l70 -98l-1038 -723zM641 109 v55l285 516h149v-449h103v-122h-103v-125h-127v125h-307zM807 231h141v269z" />
<glyph unicode="&#xbf;" d="M307 -129q0 166 158 244l207 100q100 55 100 141q0 49 -28.5 77t-77.5 28q-96 0 -148 -121l-133 47q74 215 274 215q123 0 197 -68.5t74 -185.5q0 -168 -174 -258q-45 -25 -101.5 -46t-87.5 -38q-88 -47 -88 -145q0 -70 43 -107q49 -43 133 -43q78 0 134.5 51.5 t80.5 137.5l160 -27q-25 -139 -123 -223t-252 -84q-158 0 -254 90q-94 88 -94 215zM520 887q0 57 40 96t99 39q57 0 96.5 -39t39.5 -96q0 -59 -39 -99t-96.5 -40t-98.5 39.5t-41 99.5z" />
<glyph unicode="&#xc0;" d="M39 0l510 1434h172l510 -1434h-187l-129 383h-561l-129 -383h-186zM358 1843h248l137 -295h-135zM414 555h442l-221 645z" />
<glyph unicode="&#xc1;" d="M39 0l510 1434h172l510 -1434h-187l-129 383h-561l-129 -383h-186zM414 555h442l-221 645zM524 1548l138 295h247l-250 -295h-135z" />
<glyph unicode="&#xc2;" d="M39 0l510 1434h172l510 -1434h-187l-129 383h-561l-129 -383h-186zM293 1561l315 335h54l315 -335h-178l-164 174l-164 -174h-178zM414 555h442l-221 645z" />
<glyph unicode="&#xc3;" d="M39 0l510 1434h172l510 -1434h-187l-129 383h-561l-129 -383h-186zM274 1679q37 70 95.5 113t124.5 43q74 0 147.5 -41t120.5 -41q76 0 135 74l100 -80q-37 -68 -95 -111t-124 -43q-74 0 -147.5 41t-120.5 41q-76 1 -135 -73zM414 555h442l-221 645z" />
<glyph unicode="&#xc4;" d="M39 0l510 1434h172l510 -1434h-187l-129 383h-561l-129 -383h-186zM332 1735q0 49 33.5 82.5t80.5 33.5q51 0 84 -33.5t33 -82.5t-32.5 -82t-84.5 -33q-47 0 -80.5 33t-33.5 82zM414 555h442l-221 645zM709 1735q0 49 33.5 82.5t80.5 33.5q51 0 84 -33.5t33 -82.5 t-33 -82t-84 -33q-47 0 -80.5 33t-33.5 82z" />
<glyph unicode="&#xc5;" d="M39 0l510 1434h172l510 -1434h-187l-129 383h-561l-129 -383h-186zM414 555h442l-221 645zM432 1739q0 86 58.5 145.5t144.5 59.5q88 0 145.5 -59.5t57.5 -145.5q0 -84 -57.5 -140.5t-145.5 -56.5q-86 0 -144.5 56.5t-58.5 140.5zM547 1741q0 -39 24.5 -64.5t63.5 -25.5 t63.5 25.5t24.5 64.5q0 41 -24.5 67.5t-63.5 26.5t-63.5 -26.5t-24.5 -67.5z" />
<glyph unicode="&#xc6;" d="M-23 0l398 1434h803v-172h-422v-412h340v-172h-340v-506h442v-172h-623v383h-311l-106 -383h-181zM305 555h270v645h-96z" />
<glyph unicode="&#xc7;" d="M100 716.5q0 356.5 167 545t425 188.5q201 0 333 -119t181 -317l-170 -51q-49 160 -130 237.5t-214 77.5q-190 0 -297.5 -138.5t-107.5 -423t107.5 -422.5t297.5 -138q133 0 214 77.5t130 237.5l170 -51q-49 -199 -181 -317.5t-333 -118.5q-258 0 -425 188t-167 544.5z M438 -389l221 266h144l-170 -358z" />
<glyph unicode="&#xc8;" d="M186 0v1434h910v-172h-729v-412h626v-172h-626v-506h749v-172h-930zM395 1843h248l137 -295h-135z" />
<glyph unicode="&#xc9;" d="M186 0v1434h910v-172h-729v-412h626v-172h-626v-506h749v-172h-930zM504 1548l137 295h248l-250 -295h-135z" />
<glyph unicode="&#xca;" d="M186 0v1434h910v-172h-729v-412h626v-172h-626v-506h749v-172h-930zM293 1561l315 335h54l315 -335h-178l-164 174l-164 -174h-178z" />
<glyph unicode="&#xcb;" d="M186 0v1434h910v-172h-729v-412h626v-172h-626v-506h749v-172h-930zM340 1735q0 49 34 82.5t81 33.5q51 0 83.5 -33.5t32.5 -82.5t-32.5 -82t-83.5 -33q-47 0 -81 33t-34 82zM717 1735q0 49 33.5 82.5t80.5 33.5q51 0 84 -33.5t33 -82.5t-32.5 -82t-84.5 -33 q-47 0 -80.5 33t-33.5 82z" />
<glyph unicode="&#xcc;" d="M199 0v156h346v1122h-346v156h872v-156h-346v-1122h346v-156h-872zM420 1843h248l137 -295h-135z" />
<glyph unicode="&#xcd;" d="M199 0v156h346v1122h-346v156h872v-156h-346v-1122h346v-156h-872zM463 1548l137 295h248l-250 -295h-135z" />
<glyph unicode="&#xce;" d="M199 0v156h346v1122h-346v156h872v-156h-346v-1122h346v-156h-872zM295 1561l315 335h54l315 -335h-178l-164 174l-164 -174h-178z" />
<glyph unicode="&#xcf;" d="M199 0v156h346v1122h-346v156h872v-156h-346v-1122h346v-156h-872zM334 1735q0 49 34 82.5t81 33.5q51 0 83.5 -33.5t32.5 -82.5t-32.5 -82t-83.5 -33q-47 0 -81 33t-34 82zM711 1735q0 49 33.5 82.5t80.5 33.5q51 0 84 -33.5t33 -82.5t-32.5 -82t-84.5 -33 q-47 0 -80.5 33t-33.5 82z" />
<glyph unicode="&#xd0;" d="M53 631v172h101v631h387q291 0 464 -182.5t173 -534.5t-173.5 -534.5t-463.5 -182.5h-387v631h-101zM334 172h188q225 0 344 128t119 417t-119 417t-344 128h-188v-459h223v-172h-223v-459z" />
<glyph unicode="&#xd1;" d="M145 0v1434h197l600 -1106v1106h180v-1434h-196l-600 1106v-1106h-181zM281 1679q37 70 95 113t124 43q74 0 147.5 -41t120.5 -41q76 0 135 74l101 -80q-37 -68 -95.5 -111t-124.5 -43q-74 0 -147.5 41t-120.5 41q-76 1 -135 -73z" />
<glyph unicode="&#xd2;" d="M77.5 717q-0.5 355 155.5 543q156 190 402 190t401.5 -189.5t155.5 -544t-155.5 -543.5t-401.5 -189t-401.5 189t-156 544zM264 717q0 -289 100.5 -425t270.5 -136t270.5 136t100 425t-100.5 424q-100 137 -270 137t-270.5 -136t-100.5 -425zM383 1843h248l137 -295h-135 z" />
<glyph unicode="&#xd3;" d="M77.5 717q-0.5 355 155.5 543q156 190 402 190t401.5 -189.5t155.5 -544t-155.5 -543.5t-401.5 -189t-401.5 189t-156 544zM264 717q0 -289 100.5 -425t270.5 -136t270.5 136t100 425t-100.5 424q-100 137 -270 137t-270.5 -136t-100.5 -425zM483 1548l138 295h247 l-250 -295h-135z" />
<glyph unicode="&#xd4;" d="M77.5 717q-0.5 355 155.5 543q156 190 402 190t401.5 -189.5t155.5 -544t-155.5 -543.5t-401.5 -189t-401.5 189t-156 544zM264 717q0 -289 100.5 -425t270.5 -136t270.5 136t100 425t-100.5 424q-100 137 -270 137t-270.5 -136t-100.5 -425zM293 1561l315 335h54 l315 -335h-178l-164 174l-164 -174h-178z" />
<glyph unicode="&#xd5;" d="M77.5 717q-0.5 355 155.5 543q156 190 402 190t401.5 -189.5t155.5 -544t-155.5 -543.5t-401.5 -189t-401.5 189t-156 544zM264 717q0 -289 100.5 -425t270.5 -136t270.5 136t100 425t-100.5 424q-100 137 -270 137t-270.5 -136t-100.5 -425zM274 1679q37 70 95.5 113 t124.5 43q74 0 147.5 -41t120.5 -41q76 0 135 74l100 -80q-37 -68 -95 -111t-124 -43q-74 0 -147.5 41t-120.5 41q-76 1 -135 -73z" />
<glyph unicode="&#xd6;" d="M77.5 717q-0.5 355 155.5 543q156 190 402 190t401.5 -189.5t155.5 -544t-155.5 -543.5t-401.5 -189t-401.5 189t-156 544zM264 717q0 -289 100.5 -425t270.5 -136t270.5 136t100 425t-100.5 424q-100 137 -270 137t-270.5 -136t-100.5 -425zM332 1735q0 49 33.5 82.5 t80.5 33.5q51 0 84 -33.5t33 -82.5t-32.5 -82t-84.5 -33q-47 0 -80.5 33t-33.5 82zM709 1735q0 49 33.5 82.5t80.5 33.5q51 0 84 -33.5t33 -82.5t-33 -82t-84 -33q-47 0 -80.5 33t-33.5 82z" />
<glyph unicode="&#xd7;" d="M205 330l323 323l-323 324l106 106l324 -323l323 323l107 -106l-324 -324l324 -323l-107 -107l-323 324l-324 -324z" />
<glyph unicode="&#xd8;" d="M18 35l164 217q-104 186 -104 465q0 354 155.5 543.5t401.5 189.5q213 0 352 -137l135 176l129 -90l-164 -217q104 -186 105 -465q0 -354 -155.5 -543.5t-401.5 -189.5q-213 0 -352 137l-136 -176zM264 717q0 -180 41 -303l576 757q-92 107 -246 107q-170 0 -270.5 -136 t-100.5 -425zM389 262q92 -106 246 -106q170 0 270.5 136t100.5 425q0 180 -41 303z" />
<glyph unicode="&#xd9;" d="M127 498v936h180v-949q0 -147 86 -238t242 -91t242 91t86 238v949h180v-936q0 -240 -143.5 -377t-364.5 -137t-364.5 137t-143.5 377zM399 1843h248l137 -295h-135z" />
<glyph unicode="&#xda;" d="M127 498v936h180v-949q0 -147 86 -238t242 -91t242 91t86 238v949h180v-936q0 -240 -143.5 -377t-364.5 -137t-364.5 137t-143.5 377zM504 1548l137 295h248l-250 -295h-135z" />
<glyph unicode="&#xdb;" d="M127 498v936h180v-949q0 -147 86 -238t242 -91t242 91t86 238v949h180v-936q0 -240 -143.5 -377t-364.5 -137t-364.5 137t-143.5 377zM293 1561l315 335h54l315 -335h-178l-164 174l-164 -174h-178z" />
<glyph unicode="&#xdc;" d="M127 498v936h180v-949q0 -147 86 -238t242 -91t242 91t86 238v949h180v-936q0 -240 -143.5 -377t-364.5 -137t-364.5 137t-143.5 377zM332 1735q0 49 33.5 82.5t80.5 33.5q51 0 84 -33.5t33 -82.5t-32.5 -82t-84.5 -33q-47 0 -80.5 33t-33.5 82zM709 1735q0 49 33.5 82.5 t80.5 33.5q51 0 84 -33.5t33 -82.5t-33 -82t-84 -33q-47 0 -80.5 33t-33.5 82z" />
<glyph unicode="&#xdd;" d="M84 1434h199l352 -689l352 689h199l-461 -869v-565h-180v565zM502 1548l137 295h248l-250 -295h-135z" />
<glyph unicode="&#xde;" d="M215 0v1434h180v-308h326q205 0 315.5 -109.5t110.5 -300t-110.5 -300t-315.5 -109.5h-326v-307h-180zM395 479h322q244 0 244 237.5t-244 237.5h-322v-475z" />
<glyph unicode="&#xdf;" d="M141 705v155h103v174q0 199 110.5 307.5t276.5 108.5q186 0 283.5 -103.5t97.5 -263.5q0 -113 -51.5 -186.5t-133.5 -97.5q121 -23 201 -116t80 -249q0 -223 -118 -336.5t-322 -113.5q-84 0 -146 14v156q72 -14 133 -15q135 0 208 72t73 211t-76 211t-213 72h-72v155h72 q201 0 201 217q0 104 -59.5 160.5t-157.5 56.5q-100 0 -157.5 -69.5t-57.5 -196.5v-1028h-172v705h-103z" />
<glyph unicode="&#xe0;" d="M227 297q0 168 124 253t343 85h209v45q0 113 -66.5 163t-170.5 50q-88 0 -154 -49t-90 -127l-152 41q35 133 143.5 212t252.5 79q190 0 299.5 -96.5t109.5 -301.5v-651h-139l-25 145q-49 -72 -149 -116.5t-215 -44.5q-137 0 -228.5 80.5t-91.5 232.5zM401 1442h248 l137 -295h-135zM403 297q0 -74 46.5 -116t123.5 -42q123 0 226.5 79t103.5 237v32h-225q-131 0 -203 -51t-72 -139z" />
<glyph unicode="&#xe1;" d="M227 297q0 168 124 253t343 85h209v45q0 113 -66.5 163t-170.5 50q-88 0 -154 -49t-90 -127l-152 41q35 133 143.5 212t252.5 79q190 0 299.5 -96.5t109.5 -301.5v-651h-139l-25 145q-49 -72 -149 -116.5t-215 -44.5q-137 0 -228.5 80.5t-91.5 232.5zM403 297 q0 -74 46.5 -116t123.5 -42q123 0 226.5 79t103.5 237v32h-225q-131 0 -203 -51t-72 -139zM512 1147l137 295h248l-250 -295h-135z" />
<glyph unicode="&#xe2;" d="M227 297q0 168 124 253t343 85h209v45q0 113 -66.5 163t-170.5 50q-88 0 -154 -49t-90 -127l-152 41q35 133 143.5 212t252.5 79q190 0 299.5 -96.5t109.5 -301.5v-651h-139l-25 145q-49 -72 -149 -116.5t-215 -44.5q-137 0 -228.5 80.5t-91.5 232.5zM324 1159l315 336 h53l316 -336h-179l-163 174l-164 -174h-178zM403 297q0 -74 46.5 -116t123.5 -42q123 0 226.5 79t103.5 237v32h-225q-131 0 -203 -51t-72 -139z" />
<glyph unicode="&#xe3;" d="M227 297q0 168 124 253t343 85h209v45q0 113 -66.5 163t-170.5 50q-88 0 -154 -49t-90 -127l-152 41q35 133 143.5 212t252.5 79q190 0 299.5 -96.5t109.5 -301.5v-651h-139l-25 145q-49 -72 -149 -116.5t-215 -44.5q-137 0 -228.5 80.5t-91.5 232.5zM303 1278 q37 70 95.5 113t123.5 43q74 0 147.5 -41t121.5 -41q76 0 135 73l100 -79q-37 -68 -95.5 -111t-123.5 -43q-74 0 -147.5 41t-120.5 41q-77 0 -136 -74zM403 297q0 -74 46.5 -116t123.5 -42q123 0 226.5 79t103.5 237v32h-225q-131 0 -203 -51t-72 -139z" />
<glyph unicode="&#xe4;" d="M227 297q0 168 124 253t343 85h209v45q0 113 -66.5 163t-170.5 50q-88 0 -154 -49t-90 -127l-152 41q35 133 143.5 212t252.5 79q190 0 299.5 -96.5t109.5 -301.5v-651h-139l-25 145q-49 -72 -149 -116.5t-215 -44.5q-137 0 -228.5 80.5t-91.5 232.5zM373 1333 q0 49 33.5 83t80.5 34q51 0 84 -34t33 -83t-32.5 -81.5t-84.5 -32.5q-47 0 -80.5 32.5t-33.5 81.5zM403 297q0 -74 46.5 -116t123.5 -42q123 0 226.5 79t103.5 237v32h-225q-131 0 -203 -51t-72 -139zM750 1333q0 49 33.5 83t80.5 34q51 0 84 -34t33 -83t-33 -81.5 t-84 -32.5q-47 0 -80.5 32.5t-33.5 81.5z" />
<glyph unicode="&#xe5;" d="M227 297q0 168 124 253t343 85h209v45q0 113 -66.5 163t-170.5 50q-88 0 -154 -49t-90 -127l-152 41q35 133 143.5 212t252.5 79q190 0 299.5 -96.5t109.5 -301.5v-651h-139l-25 145q-49 -72 -149 -116.5t-215 -44.5q-137 0 -228.5 80.5t-91.5 232.5zM403 297 q0 -74 46.5 -116t123.5 -42q123 0 226.5 79t103.5 237v32h-225q-131 0 -203 -51t-72 -139zM457 1337q0 86 58 145.5t144 59.5q88 0 145.5 -59.5t57.5 -145.5q0 -84 -57 -140t-146 -56q-86 0 -144 56t-58 140zM571 1339q0 -39 25 -64.5t63.5 -25.5t63.5 25.5t25 64.5 q0 41 -25 68t-63.5 27t-63.5 -27t-25 -68z" />
<glyph unicode="&#xe6;" d="M74 295q0 164 106.5 252t278.5 88h112v65q0 86 -36.5 139.5t-102.5 53.5q-131 0 -164 -176l-151 41q16 123 102 207t211 84q182 0 240 -156q39 72 106.5 114t145.5 42q154 0 237.5 -122t83.5 -345v-103h-495q0 -162 41.5 -251t119.5 -89q66 0 106 48.5t68 154.5l148 -43 q-47 -160 -122 -237.5t-200 -77.5q-90 0 -153.5 50t-89.5 134q-82 -184 -295 -184q-133 0 -215 81.5t-82 229.5zM250 301q0 -74 37 -118t100 -44q94 0 139 77t45 192v79h-90q-113 0 -172 -48t-59 -138zM748 635h323q0 113 -43 185.5t-119 72.5q-70 0 -115.5 -70.5 t-45.5 -187.5z" />
<glyph unicode="&#xe7;" d="M182 516q0 221 133.5 377t360.5 156q311 0 436 -285l-149 -62q-82 190 -287 191q-150 0 -234 -105.5t-84 -271.5t84 -271.5t234 -105.5q205 1 287 191l149 -62q-125 -285 -436 -284q-227 0 -360.5 155.5t-133.5 376.5zM432 -389l221 266h144l-170 -358z" />
<glyph unicode="&#xe8;" d="M156 516q0 225 134 379t359 154q231 0 360.5 -142.5t129.5 -355.5v-72h-807q8 -154 94 -247t223 -93q221 0 332 205l137 -72q-150 -289 -469 -288q-221 0 -357 151.5t-136 380.5zM344 635h612q-23 123 -102.5 190.5t-204.5 67.5q-121 0 -199.5 -68.5t-105.5 -189.5z M393 1442h248l137 -295h-135z" />
<glyph unicode="&#xe9;" d="M156 516q0 225 134 379t359 154q231 0 360.5 -142.5t129.5 -355.5v-72h-807q8 -154 94 -247t223 -93q221 0 332 205l137 -72q-150 -289 -469 -288q-221 0 -357 151.5t-136 380.5zM344 635h612q-23 123 -102.5 190.5t-204.5 67.5q-121 0 -199.5 -68.5t-105.5 -189.5z M479 1147l137 295h248l-250 -295h-135z" />
<glyph unicode="&#xea;" d="M156 516q0 225 134 379t359 154q231 0 360.5 -142.5t129.5 -355.5v-72h-807q8 -154 94 -247t223 -93q221 0 332 205l137 -72q-150 -289 -469 -288q-221 0 -357 151.5t-136 380.5zM307 1159l316 336h53l315 -336h-178l-164 174l-164 -174h-178zM344 635h612 q-23 123 -102.5 190.5t-204.5 67.5q-121 0 -199.5 -68.5t-105.5 -189.5z" />
<glyph unicode="&#xeb;" d="M156 516q0 225 134 379t359 154q231 0 360.5 -142.5t129.5 -355.5v-72h-807q8 -154 94 -247t223 -93q221 0 332 205l137 -72q-150 -289 -469 -288q-221 0 -357 151.5t-136 380.5zM344 635h612q-23 123 -102.5 190.5t-204.5 67.5q-121 0 -199.5 -68.5t-105.5 -189.5z M346 1333q0 49 34 83t81 34q51 0 84 -34t33 -83t-33 -81.5t-84 -32.5q-47 0 -81 32.5t-34 81.5zM723 1333q0 49 34 83t81 34q51 0 83.5 -34t32.5 -83t-32.5 -81.5t-83.5 -32.5q-47 0 -81 32.5t-34 81.5z" />
<glyph unicode="&#xec;" d="M223 0v152h357v729h-316v151h488v-880h381v-152h-910zM356 1442h248l137 -295h-135z" />
<glyph unicode="&#xed;" d="M223 0v152h357v729h-316v151h488v-880h381v-152h-910zM420 1147l137 295h248l-250 -295h-135z" />
<glyph unicode="&#xee;" d="M223 0v152h357v729h-316v151h488v-880h381v-152h-910zM264 1159l316 336h53l315 -336h-178l-164 174l-164 -174h-178z" />
<glyph unicode="&#xef;" d="M223 0v152h357v729h-316v151h488v-880h381v-152h-910zM305 1333q0 49 34 83t81 34q51 0 84 -34t33 -83t-33 -81.5t-84 -32.5q-47 0 -81 32.5t-34 81.5zM682 1333q0 49 34 83t81 34q51 0 83.5 -34t32.5 -83t-32.5 -81.5t-83.5 -32.5q-47 0 -81 32.5t-34 81.5z" />
<glyph unicode="&#xf0;" d="M150 516q0 221 134 377t357 156q68 0 137.5 -26t100.5 -65q-31 82 -86.5 143.5t-145.5 129.5l-80 -121l-121 86l78 117q-66 37 -164 78l82 125q92 -39 164 -80l76 110l119 -86l-70 -104q213 -160 307.5 -353.5t94.5 -465.5q0 -236 -133.5 -394.5t-358.5 -158.5 q-223 0 -357 155.5t-134 376.5zM326 516q0 -154 83 -265.5t232.5 -111.5t232 111.5t82.5 265.5q0 158 -84 267.5t-231 109.5q-150 0 -232.5 -111.5t-82.5 -265.5z" />
<glyph unicode="&#xf1;" d="M231 0v1032h172v-190q57 92 150.5 149.5t200.5 57.5q158 0 236.5 -88t78.5 -242v-719h-172v682q0 211 -190 211q-127 0 -215.5 -130t-88.5 -347v-416h-172zM305 1278q37 70 95.5 113t123.5 43q74 0 147.5 -41t121.5 -41q76 0 135 73l100 -79q-37 -68 -95.5 -111 t-123.5 -43q-74 0 -147.5 41t-120.5 41q-76 0 -135 -74z" />
<glyph unicode="&#xf2;" d="M127 516q0 221 139.5 377t368.5 156t368.5 -156t139.5 -377t-139.5 -376.5t-369 -156t-368.5 155.5t-139 377zM303 515.5q0 -155.5 90 -266t241.5 -110.5t242 110.5t90.5 266.5t-90.5 266.5t-242 110.5t-241.5 -111t-90 -266.5zM387 1442h248l137 -295h-135z" />
<glyph unicode="&#xf3;" d="M127 516q0 221 139.5 377t368.5 156t368.5 -156t139.5 -377t-139.5 -376.5t-369 -156t-368.5 155.5t-139 377zM303 515.5q0 -155.5 90 -266t241.5 -110.5t242 110.5t90.5 266.5t-90.5 266.5t-242 110.5t-241.5 -111t-90 -266.5zM471 1147l137 295h248l-250 -295h-135z " />
<glyph unicode="&#xf4;" d="M127 516q0 221 139.5 377t368.5 156t368.5 -156t139.5 -377t-139.5 -376.5t-369 -156t-368.5 155.5t-139 377zM293 1159l315 336h54l315 -336h-178l-164 174l-164 -174h-178zM303 515.5q0 -155.5 90 -266t241.5 -110.5t242 110.5t90.5 266.5t-90.5 266.5t-242 110.5 t-241.5 -111t-90 -266.5z" />
<glyph unicode="&#xf5;" d="M127 516q0 221 139.5 377t368.5 156t368.5 -156t139.5 -377t-139.5 -376.5t-369 -156t-368.5 155.5t-139 377zM272 1278q37 70 95.5 113t124.5 43q74 0 147.5 -41t120.5 -41q76 0 135 73l100 -79q-37 -68 -95 -111t-124 -43q-74 0 -147.5 41t-120.5 41q-76 0 -135 -74z M303 515.5q0 -155.5 90 -266t241.5 -110.5t242 110.5t90.5 266.5t-90.5 266.5t-242 110.5t-241.5 -111t-90 -266.5z" />
<glyph unicode="&#xf6;" d="M127 516q0 221 139.5 377t368.5 156t368.5 -156t139.5 -377t-139.5 -376.5t-369 -156t-368.5 155.5t-139 377zM303 515.5q0 -155.5 90 -266t241.5 -110.5t242 110.5t90.5 266.5t-90.5 266.5t-242 110.5t-241.5 -111t-90 -266.5zM332 1333q0 49 33.5 83t80.5 34 q51 0 84 -34t33 -83t-32.5 -81.5t-84.5 -32.5q-47 0 -80.5 32.5t-33.5 81.5zM709 1333q0 49 33.5 83t80.5 34q51 0 84 -34t33 -83t-33 -81.5t-84 -32.5q-47 0 -80.5 32.5t-33.5 81.5z" />
<glyph unicode="&#xf7;" d="M184 573v152h901v-152h-901zM500 293q0 59 39 97t96 38t96 -38t39 -97.5t-39 -97t-96 -37.5t-96 37q-39 39 -39 98zM500 1005.5q0 59.5 39 97.5t96 38t96 -38t39 -97.5t-39 -97.5t-96 -38t-96 37q-39 39 -39 98.5z" />
<glyph unicode="&#xf8;" d="M127 516q0 221 139.5 377t368.5 156q147 0 264 -72l113 143l125 -88l-121 -153q127 -150 127 -363q0 -221 -139.5 -376.5t-368.5 -155.5q-147 0 -264 71l-113 -143l-125 88l121 154q-127 150 -127 362zM303 516q0 -127 59 -223l437 557q-76 43 -164 43 q-152 0 -242 -110.5t-90 -266.5zM471 182q76 -43 164 -43q152 0 242 110.5t90 266.5q0 127 -60 223z" />
<glyph unicode="&#xf9;" d="M211 313v719h172v-682q0 -211 190 -211q127 0 215.5 130t88.5 347v416h172v-1032h-172v190q-57 -92 -150.5 -149t-200.5 -57q-158 0 -236.5 87.5t-78.5 241.5zM406 1442h247l138 -295h-136z" />
<glyph unicode="&#xfa;" d="M211 313v719h172v-682q0 -211 190 -211q127 0 215.5 130t88.5 347v416h172v-1032h-172v190q-57 -92 -150.5 -149t-200.5 -57q-158 0 -236.5 87.5t-78.5 241.5zM496 1147l137 295h248l-250 -295h-135z" />
<glyph unicode="&#xfb;" d="M211 313v719h172v-682q0 -211 190 -211q127 0 215.5 130t88.5 347v416h172v-1032h-172v190q-57 -92 -150.5 -149t-200.5 -57q-158 0 -236.5 87.5t-78.5 241.5zM293 1159l315 336h54l315 -336h-178l-164 174l-164 -174h-178z" />
<glyph unicode="&#xfc;" d="M211 313v719h172v-682q0 -211 190 -211q127 0 215.5 130t88.5 347v416h172v-1032h-172v190q-57 -92 -150.5 -149t-200.5 -57q-158 0 -236.5 87.5t-78.5 241.5zM332 1333q0 49 33.5 83t80.5 34q51 0 84 -34t33 -83t-32.5 -81.5t-84.5 -32.5q-47 0 -80.5 32.5t-33.5 81.5z M709 1333q0 49 33.5 83t80.5 34q51 0 84 -34t33 -83t-33 -81.5t-84 -32.5q-47 0 -80.5 32.5t-33.5 81.5z" />
<glyph unicode="&#xfd;" d="M147 1032h193l346 -756l305 756h187l-613 -1450h-172l201 488zM541 1147l137 295h248l-250 -295h-135z" />
<glyph unicode="&#xfe;" d="M180 -418v1868h172v-549q123 147 316 148q223 0 348 -145.5t125 -387.5t-125 -387t-348 -145q-100 0 -184.5 44t-131.5 109v-555h-172zM338 516q0 -168 84 -272.5t229.5 -104t229.5 104.5t84 272t-84 272.5t-229.5 104.5t-229.5 -104.5t-84 -272.5z" />
<glyph unicode="&#xff;" d="M147 1032h193l346 -756l305 756h187l-613 -1450h-172l201 488zM362 1333q0 49 34 83t81 34q51 0 84 -34t33 -83t-33 -81.5t-84 -32.5q-47 0 -81 32.5t-34 81.5zM739 1333q0 49 34 83t81 34q51 0 84 -34t33 -83t-33 -81.5t-84 -32.5q-47 0 -81 32.5t-34 81.5z" />
<glyph unicode="&#x152;" d="M78 716.5q0 356.5 145 537t389 180.5h537v-172h-375v-412h320v-172h-320v-506h395v-172h-557q-244 0 -389 180t-145 536.5zM264 717q0 -293 82 -419t248 -126v1106q-164 0 -247 -133t-83 -428z" />
<glyph unicode="&#x153;" d="M150 516q0 221 139 377t368 156q231 0 360.5 -142.5t129.5 -355.5v-72h-404v-332q158 35 246 197l137 -72q-150 -288 -469 -288q-229 0 -368 155.5t-139 376.5zM326 516q0 -133 62.5 -234.5t178.5 -131.5v731q-115 -29 -178 -131.5t-63 -233.5zM743 635h222 q-43 215 -222 250v-250z" />
<glyph unicode="&#x178;" d="M84 1434h199l352 -689l352 689h199l-461 -869v-565h-180v565zM332 1735q0 49 33.5 82.5t80.5 33.5q51 0 84 -33.5t33 -82.5t-32.5 -82t-84.5 -33q-47 0 -80.5 33t-33.5 82zM709 1735q0 49 33.5 82.5t80.5 33.5q51 0 84 -33.5t33 -82.5t-33 -82t-84 -33q-47 0 -80.5 33 t-33.5 82z" />
<glyph unicode="&#x2c6;" d="M293 1159l315 336h54l315 -336h-178l-164 174l-164 -174h-178z" />
<glyph unicode="&#x2dc;" d="M272 1278q37 70 95.5 113t124.5 43q74 0 147.5 -41t120.5 -41q76 0 135 73l100 -79q-37 -68 -95 -111t-124 -43q-74 0 -147.5 41t-120.5 41q-76 0 -135 -74z" />
<glyph unicode="&#x2000;" horiz-adv-x="972" />
<glyph unicode="&#x2001;" horiz-adv-x="1944" />
<glyph unicode="&#x2002;" horiz-adv-x="972" />
<glyph unicode="&#x2003;" horiz-adv-x="1944" />
<glyph unicode="&#x2004;" horiz-adv-x="648" />
<glyph unicode="&#x2005;" horiz-adv-x="486" />
<glyph unicode="&#x2006;" horiz-adv-x="324" />
<glyph unicode="&#x2007;" horiz-adv-x="324" />
<glyph unicode="&#x2008;" horiz-adv-x="243" />
<glyph unicode="&#x2009;" horiz-adv-x="388" />
<glyph unicode="&#x200a;" horiz-adv-x="108" />
<glyph unicode="&#x2010;" d="M279 573v152h714v-152h-714z" />
<glyph unicode="&#x2011;" d="M279 573v152h714v-152h-714z" />
<glyph unicode="&#x2012;" d="M279 573v152h714v-152h-714z" />
<glyph unicode="&#x2013;" d="M215 573v152h838v-152h-838z" />
<glyph unicode="&#x2014;" d="M133 573v152h1004v-152h-1004z" />
<glyph unicode="&#x2018;" d="M410 1450h258l194 -508h-131z" />
<glyph unicode="&#x2019;" d="M408 942l194 508h258l-321 -508h-131z" />
<glyph unicode="&#x201a;" d="M408 -117l194 508h258l-321 -508h-131z" />
<glyph unicode="&#x201c;" d="M188 1450h258l195 -508h-131zM631 1450h258l194 -508h-131z" />
<glyph unicode="&#x201d;" d="M186 942l195 508h258l-322 -508h-131zM629 942l194 508h258l-321 -508h-131z" />
<glyph unicode="&#x201e;" d="M186 -117l195 508h258l-322 -508h-131zM629 -117l194 508h258l-321 -508h-131z" />
<glyph unicode="&#x2022;" d="M407.5 676q0.5 94 67 160.5t160.5 66.5t160.5 -66.5t66.5 -160.5t-66.5 -160.5t-160.5 -67t-162 65.5q-66 68 -65.5 162z" />
<glyph unicode="&#x2026;" d="M61 152q0 72 46.5 119.5t113.5 47.5q70 0 119 -49t49 -118q0 -68 -48 -114t-120 -46q-68 0 -114 46t-46 114zM471 152q0 72 46 119.5t114 47.5q70 0 119 -49t49 -118q0 -68 -48.5 -114t-119.5 -46q-68 0 -114 46t-46 114zM881 152q0 72 46 119.5t113 47.5q70 0 119 -49 t49 -118q0 -68 -48 -114t-120 -46q-68 0 -113.5 46t-45.5 114z" />
<glyph unicode="&#x202f;" horiz-adv-x="388" />
<glyph unicode="&#x2039;" d="M324 571v127l602 408v-184l-428 -287l428 -287v-184z" />
<glyph unicode="&#x203a;" d="M344 164v184l428 287l-428 287v184l602 -408v-127z" />
<glyph unicode="&#x205f;" horiz-adv-x="486" />
<glyph unicode="&#x20ac;" d="M104 477l70 152h86q-2 29 -2 88t2 88h-156l70 151h105q45 233 174 363.5t329 130.5q289 0 414 -262l-152 -82q-88 180 -262 180q-254 0 -323 -330h518l-70 -151h-467q-2 -29 -2 -88.5t2 -87.5h537l-70 -152h-448q70 -330 323 -330q174 0 262 181l152 -82 q-125 -262 -414 -262q-201 0 -329.5 130t-173.5 363h-175z" />
<glyph unicode="&#x2122;" d="M25 1315v119h507v-119h-190v-701h-127v701h-190zM627 614v820h137l158 -424l157 424h142v-820h-131v572l-129 -336h-78l-129 336v-572h-127z" />
<glyph unicode="&#x25fc;" horiz-adv-x="1034" d="M0 0v1034h1034v-1034h-1034z" />
<glyph unicode="&#xfb01;" d="M96 877v155h189v53q0 176 106.5 270.5t272.5 94.5q211 0 362 -156l-119 -112q-68 63 -120 87.5t-125 24.5q-96 0 -150.5 -49t-54.5 -145v-68h608v-1032h-172v877h-436v-877h-172v877h-189z" />
<glyph unicode="&#xfb02;" d="M96 877v155h189v37q0 365 317 365h467v-1434h-172v1278h-297q-143 0 -143 -195v-51h213v-155h-213v-877h-172v877h-189z" />
</font>
</defs>
</svg>
